拉脱维亚女高音 Marina Rebeka – Voyage Hi-Res百度

立陶宛女高音Marina Rebeka就不用多介绍了 。新碟,第一时间奉上。

foobar2000 1.6 / Dynamic Range Meter 1.1.1
log date: 2022-09-16 10:40:12

——————————————————————————–
Analyzed: Marina Rebeka / Voyage
——————————————————————————–

DR Peak RMS Duration Track
——————————————————————————–
DR7 -0.51 dB -12.29 dB 4:53 01-L\’Invitation Au Voyage
DR9 -0.56 dB -14.21 dB 3:18 02-Chanson Slave
DR8 -0.51 dB -14.14 dB 4:18 03-Les Orientales: 1. Rêverie
DR10 -0.50 dB -17.23 dB 3:39 04-Shéhérazade: 2. La Flûte Enchantée
DR10 -1.18 dB -16.36 dB 3:18 05-Désir De l\’Orient
DR8 -0.50 dB -13.36 dB 4:03 06-Quarante Mélodies: 31. Chanson Indienne
DR9 -0.71 dB -14.88 dB 3:37 07-Les Roses d\’Ispahan
DR9 -0.64 dB -14.86 dB 3:33 08-Perche Piangi?
DR10 -1.00 dB -15.62 dB 3:57 09-La Madonna Col Bambino
DR8 -0.62 dB -14.41 dB 2:55 10-Alla Riva del Tebro
DR8 -0.50 dB -12.70 dB 3:36 11-Oh! Dille Tu!
DR11 -0.63 dB -15.29 dB 1:50 12-5 Canti Popolari Toscani: 5. L\’innamorata
DR10 -0.81 dB -16.00 dB 3:01 13-5 Lieder: 1. Dein
DR8 -0.50 dB -13.28 dB 5:24 14-5 Lieder: 2. Der Sturm
DR9 -0.78 dB -14.99 dB 3:50 15-5 Lieder: 3. Die Vöglein
DR8 -0.50 dB -11.49 dB 1:37 16-5 Lieder: 4. Ewige Liebe
DR10 -1.07 dB -17.11 dB 5:33 17-5 Lieder : 5. Die Wang\’ ist Blass
DR9 -1.00 dB -14.90 dB 1:57 18-12 Poems by Pushkin, Fet, and Turgenev: 7. The Chickadee
DR9 -0.63 dB -14.38 dB 1:32 19-The Willow
DR12 -1.58 dB -18.13 dB 1:58 20-Serenade
DR11 -0.84 dB -16.74 dB 3:08 21-12 Poems by Pushkin, Fet, and Turgenev: 1. The Flower
DR10 -0.80 dB -16.79 dB 1:44 22-12 Poems by Pushkin, Fet, and Turgenev: 5. Whisper, Timid Breathing
DR8 -0.50 dB -12.55 dB 3:41 23-12 Poems by Pushkin, Fet, and Turgenev: 6. Invocation
——————————————————————————–

Number of tracks:23
Official DR value: DR9

Samplerate: 96000 Hz
Channels: 2
Bits per sample: 24
Bitrate: 2468 kbps
Codec: FLAC
================================================================================

资源下载
下载价格5 积分
VIP免费
原文链接:https://www.sumicd.com/9232.html
0

评论0

没有账号?注册  忘记密码?